[HD 1080p] Wicked - The Preacher's Daughter 2018 1080p WEB-DL

noelhao

Ultra HD4K
Thành viên BQT
Moderator
LX Credits
9,190
USD
0
Tham gia
20/11/09
Bài viết
6,668
Được thích
1,718
Giới tính
Nam
Lô đề giá gốc: Lô 21.680đ, đề 710đ
Wicked - The Preacher's Daughter 2018 1080p WEB-DL


Screenshot:


Mediainfo:
Mã:
Wicked - The Preacher's Daughter 2018 1080p WEB-DL.mp4
Format                      : MPEG-4
Format profile              : Base Media
Codec ID                    : isom (isom/iso2/avc1/mp41)
File size                   : 8.22 GiB
Duration                    : 3 h 9 min
Overall bit rate mode       : Variable
Overall bit rate            : 6 210 kb/s
Writing application         : Lavf57.28.100

Video
ID                          : 1
Format                      : AVC
Format/Info                 : Advanced Video Codec
Format profile              : [email protected]
Format settings             : CABAC / 5 Ref Frames
Format settings, CABAC      : Yes
Format settings, ReFrames   : 5 frames
Codec ID                    : avc1
Codec ID/Info               : Advanced Video Coding
Duration                    : 3 h 9 min
Source duration             : 3 h 9 min
Bit rate                    : 6 000 kb/s
Width                       : 1 920 pixels
Height                      : 1 080 pixels
Display aspect ratio        : 16:9
Frame rate mode             : Constant
Frame rate                  : 23.976 (24000/1001) FPS
Color space                 : YUV
Chroma subsampling          : 4:2:0
Bit depth                   : 8 bits
Scan type                   : Progressive
Bits/(Pixel*Frame)          : 0.121
Stream size                 : 7.88 GiB (96%)
Source stream size          : 7.88 GiB (96%)
Writing library             : x264 core 148 r2665 a01e339
Encoding settings           : cabac=1 / ref=5 / deblock=1:0:0 / analyse=0x3:0x113 / me=umh / subme=8 / psy=1 / psy_rd=1.00:0.00 / mixed_ref=1 / me_range=16 / chroma_me=1 / trellis=1 / 8x8dct=1 / cqm=0 / deadzone=21,11 / fast_pskip=1 / chroma_qp_offset=-2 / threads=20 / lookahead_threads=3 / sliced_threads=0 / nr=0 / decimate=1 / interlaced=0 / bluray_compat=0 / constrained_intra=0 / bframes=3 / b_pyramid=2 / b_adapt=2 / b_bias=0 / direct=3 / weightb=1 / open_gop=0 / weightp=2 / keyint=60 / keyint_min=6 / scenecut=40 / intra_refresh=0 / rc_lookahead=50 / rc=abr / mbtree=1 / bitrate=6000 / ratetol=1.0 / qcomp=0.60 / qpmin=0 / qpmax=69 / qpstep=4 / ip_ratio=1.40 / aq=1:1.00
Tagged date                 : UTC 2016-08-30 03:12:56
Codec configuration box     : avcC

Audio
ID                          : 2
Format                      : AAC
Format/Info                 : Advanced Audio Codec
Format profile              : LC
Codec ID                    : mp4a-40-2
Duration                    : 3 h 9 min
Source duration             : 3 h 9 min
Source_Duration_LastFrame   : -5 ms
Bit rate mode               : Variable
Bit rate                    : 253 kb/s
Maximum bit rate            : 320 kb/s
Channel(s)                  : 2 channels
Channel positions           : Front: L R
Sampling rate               : 48.0 kHz
Frame rate                  : 46.875 FPS (1024 SPF)
Compression mode            : Lossy
Stream size                 : 343 MiB (4%)
Source stream size          : 343 MiB (4%)
Default                     : Yes
Alternate group             : 1
Tagged date                 : UTC 2016-08-30 03:12:56


Link torrent:
Mã:
magnet:?xt=urn:btih:BA877162864A99FA4173ECAED930466F9E0B918B
 

Nguyenchom

Còn Bú Sữa Mẹ
LX Credits
95
USD
0
Tham gia
15/12/18
Bài viết
3
Được thích
0
Giới tính
Nam
Huong dan minh xem phim tren dt nha ad
 

ayno

Dậy Thì
Verified
LX Credits
2
USD
0
Tham gia
26/12/09
Bài viết
55
Được thích
10
quá hay, đang kéo 40p là xong. tks thớt.
 

ayno

Dậy Thì
Verified
LX Credits
2
USD
0
Tham gia
26/12/09
Bài viết
55
Được thích
10
tôi thấy phim có nội dung như vậy mới thú vị, cảm ơn thớt.
 
Bên trên Bottom